【中2023超高分票房爆笑】【年会不能停!】【WebDL-2160p.MKV】【国语】-免费观看-全集-高清1080p-最新电影-百度云-云盘-迅雷

海报





译  名 年会不能停!
片  名 Johnny Keep Walking!
年  代 2023
国  家 中国
类  别 剧情/喜剧
语  言 汉语普通话
字  幕 中文硬字幕
评  分 8.1/10 from 866,130 users
链  接 https://movie.douban.com/subject/35725869
文件大小 3.42 GB
片  长 117 Min
导  演 董润年 Runnian Dong
主  演 大鹏 Chengpeng Dong
     白客 White. K
     庄达菲 Dafei Zhuang
     王迅 Xun Wang
     孙艺洲 Yizhou Sun
     李乃文 Naiwen Li
     欧阳奋强 Fenqiang Ouyang
     童漠男 Monan Tong
     大木 Damu
     晃晃 Huanghuang
     衣云鹤 Yunhe Yi

简介

  在一个配件厂兢兢业业许多年的钳工胡建林(大鹏 饰),偶然接到一纸调令,命他马上到集团总公司赴任。淳朴老实的建林还以为作为年年先进的他成为了集团树立奖掖优秀员工的典型,殊不知这却是一场阴差阳错走后门拖关系的狸猫换太子。人事经理马杰(白客 饰)虽然很快发现了这场乌龙,但为了避免遭到处罚,只能将错就错,想方设法保住这位不速之客。而在这一过程中,胡建林也因扑朔迷离的身份受到集团上下的种种揣测,他的层级也意外地一次又一次提升。与此同时,集团正处于大裁员的风雨飘摇时刻,而展现公司面貌的年会召开在即。

  处在漩涡中心的胡建林,终于发现了一系列诡异事件背后的玄机……

Video
Format                         : HEVC
Format/Info                    : High Efficiency Video Coding
Format profile                 : Main@L5@Main
Codec ID                       : V_MPEGH/ISO/HEVC
Duration                       : 1 h 57 min
Bit rate                       : 3 934 kb/s
Width                          : 3 840 pixels
Height                         : 1 608 pixels
Display aspect ratio           : 2.40:1
Frame rate mode                : Constant
Frame rate                     : 24.000 FPS
Color space                    : YUV
Chroma subsampling             : 4:2:0
Bit depth                      : 8 bits
Bits/(Pixel*Frame)             : 0.027
Stream size                    : 3.22 GiB (94%)

Audio
Format                         : E-AC-3
Format/Info                    : Enhanced AC-3
Commercial name                : Dolby Digital Plus
Codec ID                       : A_EAC3
Duration                       : 1 h 57 min
Bit rate mode                  : Constant
Bit rate                       : 256 kb/s
Channel(s)                     : 6 channels
Channel layout                 : L R C LFE Ls Rs
Sampling rate                  : 48.0 kHz
Frame rate                     : 31.250 FPS (1536 SPF)
Compression mode               : Lossy
Stream size                    : 214 MiB (6%)
Service kind                   : Complete Main
截图


,

【下载地址】

资源名称(您可以点击这些文件名进行下载)

由于版权原因,本站共享资源只供云盘资源,版权均属于影片公司所有,请在下载后24小时删除,切勿用于商业用途。本站所有资源信息均从互联网搜索而来,本站不对显示的内容承担责任,如您认为本站页面信息侵犯了您的权益,请附上版权证明邮件并发送到[email protected]告知,我们会在收到邮件后72小时内删除。
想开点 » 【中2023超高分票房爆笑】【年会不能停!】【WebDL-2160p.MKV】【国语】-免费观看-全集-高清1080p-最新电影-百度云-云盘-迅雷