【韩国2023最新期待动作犯罪大片】【毒战2】【WebDL-1080p.MKV】【中字】-免费观看-全集-高清1080p-最新电影-百度云-云盘-迅雷

韩版毒战第一部的下载地址请点击这里

海报





译  名 毒战2/信徒2
片  名 Believer 2
年  代 2023
国  家 韩国
类  别 动作/犯罪/惊悚
语  言 韩语/汉语普通话
字  幕 中简/中繁
评  分 5.1/10 from 1,309 users
链  接 https://movie.douban.com/subject/35840171
文件大小 4.54 GB
片  长 114 Min
导  演 白宗烈 Jong-Yeol Baek
主  演 赵震雄 Cho Jin-woong
     车胜元 Seung-won Cha
     韩孝周 Hyo-joo Han
     吴承勋 Oh Seung-Hoon
     金东英 Dong-yeong Kim
     李周英 Joo-young Lee
     赵汉哲 Han-chul Jo
     马泰 Tzi Ma

简介

  这是一部Netflix犯罪动作片,围绕仍在追捕李先生的侦探元好(赵震雄 饰)、失踪的乐(吴承勋 饰)、重新出现的布莱恩(车胜元 饰)和从中国赶来解决问题的大刀(韩孝周 饰)展开,讲述了他们之间的致命战争。

Video
Format                         : AVC
Format/Info                    : Advanced Video Codec
Format profile                 : Main@L4
Format settings                : CABAC / 3 Ref Frames
Format settings, CABAC         : Yes
Format settings, Reference fra : 3 frames
Codec ID                       : V_MPEG4/ISO/AVC
Duration                       : 1 h 56 min
Bit rate mode                  : Variable
Bit rate                       : 5 000 kb/s
Maximum bit rate               : 7 500 kb/s
Width                          : 1 920 pixels
Height                         : 1 080 pixels
Display aspect ratio           : 16:9
Frame rate mode                : Constant
Frame rate                     : 23.976 (24000/1001) FPS
Color space                    : YUV
Chroma subsampling             : 4:2:0
Bit depth                      : 8 bits
Scan type                      : Progressive
Bits/(Pixel*Frame)             : 0.101
Stream size                    : 3.93 GiB (86%)

Audio
Format                         : E-AC-3 JOC
Format/Info                    : Enhanced AC-3 with Joint Object Coding
Commercial name                : Dolby Digital Plus with Dolby Atmos
Codec ID                       : A_EAC3
Duration                       : 1 h 54 min
Bit rate mode                  : Constant
Bit rate                       : 768 kb/s
Channel(s)                     : 6 channels
Channel layout                 : L R C LFE Ls Rs
Sampling rate                  : 48.0 kHz
Frame rate                     : 31.250 FPS (1536 SPF)
Bit depth                      : 32 bits
Compression mode               : Lossy
Stream size                    : 628 MiB (13%)
Language                       : Korean
Service kind                   : Complete Main
截图


,

【下载地址】

资源名称(您可以点击这些文件名进行下载)

由于版权原因,本站共享资源只供云盘资源,版权均属于影片公司所有,请在下载后24小时删除,切勿用于商业用途。本站所有资源信息均从互联网搜索而来,本站不对显示的内容承担责任,如您认为本站页面信息侵犯了您的权益,请附上版权证明邮件并发送到[email protected]告知,我们会在收到邮件后72小时内删除。
想开点 » 【韩国2023最新期待动作犯罪大片】【毒战2】【WebDL-1080p.MKV】【中字】-免费观看-全集-高清1080p-最新电影-百度云-云盘-迅雷