【港2023众星】【女囚风暴1995.未删减港版】【WebDL-1080p.MKV】【中字】-免费观看-全集-高清1080p-最新电影-百度云-云盘-迅雷

此为88分钟的未删减完整版!不过目前只有粤语音轨,没有国语音轨!

海报





译  名 女囚风暴1995/女子监狱
片  名 Prison Flowers
年  代 2023
国  家 中国香港
类  别 动作/剧情
语  言 粤语
字  幕 中简/中繁
评  分 6.6/10 from 56 users
链  接 https://www.imdb.com/title/tt28814576
文件大小 3.66 GB
片  长 88 Min
导  演 吕美凤 Mei-Fung Lui
主  演 周秀娜 Chrissie Chaw
     钟欣潼 Gillian Chung
     吴千语 Karena Ng
     吴家丽 Carrie Ng
     陈滢 Jeannie Chan
     陈庭欣 Toby Chan
     夏嫣 Yan Xia
     郭奕芯 Ashina Kwok
     袁嘉敏 Candy Yuen
     陈嘉莉 Kelly Chen
     李彩桦 Rain Li

简介

  做生意的女强人顶姐因签错文件入狱,一开始就与狱中的前辈波嫂发生冲突,又不喜监狱管理制度,被人孤立。凯莉主动帮助她适应新环境,更因此结识了为人善良,心系女儿又照顾狱中姐妹的博妈。为解决狱中卫生巾不足的问题,顶姐发挥做生意的头脑、与博妈利用各工队协助的力量,尽力为狱友们解决问题,并协力维护和平的女监环境,顶姐更因此赢得了大家的欢迎。但没想到,女监恶霸劏猪环再度入狱,马上破坏了监狱的和谐。为了成为狱中老大,劏猪环设局陷害顶姐和波嫂,令原本对立的二人被罚独立囚禁一星期。两人于这期间难得地交心言谈,拉近了彼此的距离并成为知心好友。博妈即将出狱,却意外发现女儿波波入狱。波波埋怨博妈多年没尽到母亲的责任,不愿与博妈亲近,博妈悲痛万分。在一次劏猪环责难波波泄愤期间,博妈为了保护波波而去世。此举激怒了波波和众人,她们决心共同抵制劏猪环、让监狱回到往日的和平与宁静。波波最终化解了与母亲博妈多年的心结,顶姐和波嫂也明白幸福得靠自己争取。众人在这段监狱生活中,最终悟到人生的缺失,也寻得自己的追求。

Video
Format                         : AVC
Format/Info                    : Advanced Video Codec
Format profile                 : High@L4
Format settings                : CABAC / 4 Ref Frames
Format settings, CABAC         : Yes
Format settings, Reference fra : 4 frames
Codec ID                       : V_MPEG4/ISO/AVC
Duration                       : 1 h 27 min
Bit rate mode                  : Variable
Bit rate                       : 5 701 kb/s
Maximum bit rate               : 12.7 Mb/s
Width                          : 1 920 pixels
Height                         : 1 080 pixels
Display aspect ratio           : 16:9
Frame rate mode                : Constant
Frame rate                     : 24.000 FPS
Color space                    : YUV
Chroma subsampling             : 4:2:0
Bit depth                      : 8 bits
Scan type                      : Progressive
Bits/(Pixel*Frame)             : 0.115
Stream size                    : 3.50 GiB (95%)
Color range                    : Limited
Color primaries                : BT.709
Transfer characteristics       : BT.709
Matrix coefficients            : BT.709

Audio
Format                         : E-AC-3
Format/Info                    : Enhanced AC-3
Commercial name                : Dolby Digital Plus
Codec ID                       : A_EAC3
Duration                       : 1 h 27 min
Bit rate mode                  : Constant
Bit rate                       : 256 kb/s
Channel(s)                     : 6 channels
Channel layout                 : L R C LFE Ls Rs
Sampling rate                  : 48.0 kHz
Frame rate                     : 31.250 FPS (1536 SPF)
Compression mode               : Lossy
Stream size                    : 161 MiB (4%)
Language                       : Chinese
Service kind                   : Complete Main
截图


,

【下载地址】

资源名称(您可以点击这些文件名进行下载)

由于版权原因,本站共享资源只供云盘资源,版权均属于影片公司所有,请在下载后24小时删除,切勿用于商业用途。本站所有资源信息均从互联网搜索而来,本站不对显示的内容承担责任,如您认为本站页面信息侵犯了您的权益,请附上版权证明邮件并发送到[email protected]告知,我们会在收到邮件后72小时内删除。
想开点 » 【港2023众星】【女囚风暴1995.未删减港版】【WebDL-1080p.MKV】【中字】-免费观看-全集-高清1080p-最新电影-百度云-云盘-迅雷